Depeche Mode Depeche Mode Depeche Mode Depeche Mode Depeche Mode Depeche Mode * LOGIN   * REGISTER
It is currently 27.05.2018, 12:45 msk

Depeche Mode RTL2 Studio (Paris, France) 21.03.2017

Reply to topic Go to page Previous  1 ... 5, 6, 7, 8, 9
Author Message
 Depeche Mode RTL2 Studio (Paris, France) 21.03.2017
26.03.2017, 11:43 
User avatar

Country: Belarus (by)
Большое спасибо, 242mode!!! :good: :music:


 
TOP
  
 
Depeche Mode
 Depeche Mode RTL2 Studio (Paris, France) 21.03.2017
31.03.2017, 20:49 
User avatar
wbru wrote:
NLMDA wrote:
Это лучшее качество на данный момент. Онлайн стрим на оф.сайте был Моно и 64 Kbps (((
Остаётся надеяться, что кто-то во Франции сделал запись напрямую, с цифрового радиосигнала тюнера.


:prezent: Вот и услышаны были мысли-в-слух!! :sun_bespectacled:
На depechemode-live.com (подозреваю, что и на дайме тоже, не смотрел) появилась :new: запись с ресивара от robertmode -
"An excellent quality FM broadcast recording":


:music: :ура:

Спасибо за этот, новый для меня, ресурс!


 
TOP
  
 
Depeche Mode
 Depeche Mode RTL2 Studio (Paris, France) 21.03.2017
23.04.2017, 14:52 
User avatar

Country: Chile (cl)
dual audio version. mkv
audio 1 flac fm broadcast
audio 2 AAC 72.0 kb/s

(video Ayakano)
(audio fm broadcast robertmode)

DEPECHE MODE-GLOBAL SPIRIT TOUR\04.-DEPECHE MODE- Studios Rive Gauche, RTL2, Paris, France TMC - Quotidien (dm) - 21-03-2017 (1).mkv
Format : Matroska
Format version : Version 4 / Version 2
File size : 1.73 GiB
Duration : 44 min 42 s
Overall bit rate mode : Variable
Overall bit rate : 5 529 kb/s


Video
ID : 1
Format : AVC
Format/Info : Advanced Video Codec
Format profile : High@L4
Format settings, CABAC : Yes
Format settings, ReFrames : 4 frames
Codec ID : V_MPEG4/ISO/AVC
Duration : 44 min 42 s
Bit rate : 4 283 kb/s
Width : 1 440 pixels
Height : 1 080 pixels
Display aspect ratio : 16:9
Frame rate mode : Constant
Frame rate : 25.000 FPS
Color space : YUV
Chroma subsampling : 4:2:0
Bit depth : 8 bits
Scan type : MBAFF
Scan type, store method : Interleaved fields
Scan order : Top Field First
Bits/(Pixel*Frame) : 0.110
Stream size : 1.34 GiB (77%)
Default : Yes
Forced : No

Audio #1
ID : 2
Format : FLAC
Format/Info : Free Lossless Audio Codec
Codec ID : A_FLAC
Duration : 44 min 26 s
Bit rate mode : Variable
Bit rate : 1 179 kb/s
Channel(s) : 2 channels
Channel positions : Front: L R
Sampling rate : 48.0 kHz
Frame rate : 11.719 FPS (4096 spf)
Bit depth : 16 bits
Delay relative to video : 2 s 731 ms
Stream size : 375 MiB (21%)
Writing library : libFLAC 1.2.1 (UTC 2007-09-17)
Default : Yes
Forced : No

Audio #2
ID : 3
Format : AAC
Format/Info : Advanced Audio Codec
Format profile : HE-AAC / LC
Codec ID : A_AAC
Duration : 44 min 42 s
Bit rate : 72.0 kb/s
Channel(s) : 2 channels
Channel positions : Front: L R
Sampling rate : 48.0 kHz / 24.0 kHz
Frame rate : 23.438 FPS (1024 spf)
Compression mode : Lossy
Delay relative to video : -369 ms
Stream size : 23.0 MiB (1%)
Language : French
Default : No
Forced : No

Menu
00:00:00.000 : :01. Going Backwards
00:06:50.000 : :02. So Much Love
00:11:35.000 : :03. Corrupt
00:16:35.000 : :04. A Pain That I'm Used To
00:21:20.000 : :05. Cover Me
00:26:35.000 : :06. Where's The Revolution
00:31:20.000 : :07. Walking In My Shoes
00:38:00.000 : :08. Personal Jesus



Пожалуйста, зарегистрируйтесь, чтобы увидеть ссылку. | Please register to see the link.


 
TOP
  
 
Depeche Mode
Reply to topic Go to page Previous  1 ... 5, 6, 7, 8, 9


  

Depeche Mode


Depeche Mode DEPECHE MODE
"Spreading the News around the World"
© 2008-2018 community.depmode.com