Depeche Mode Depeche Mode Depeche Mode Depeche Mode Depeche Mode Depeche Mode * LOGIN   * REGISTER
It is currently 22.08.2018, 08:58 msk

Depeche Mode Delta Machine (Album Launch Event) 24.03.2013

Reply to topic Go to page Previous  1 ... 6, 7, 8, 9, 10  Next
Author Message
 Depeche Mode Delta Machine (Album Launch Event) 24.03.2013
11.04.2013, 10:45 
User avatar

Country: Russia (ru)
Костян,ваублин! Ты сделал подарок мне !!! :hi:
Круто! :music: :gree:

Format : MPEG-4
Format profile : Base Media / Version 2
Codec ID : mp42
File size : 2.05 GiB
Duration : 51mn 31s
Overall bit rate mode : Variable
Overall bit rate : 5 702 Kbps
Encoded date : UTC 2013-04-08 21:12:20
Tagged date : UTC 2013-04-08 21:12:20
Video #1
ID : 1
Format : AVC
Format/Info : Advanced Video Codec
Format profile : High@L4.0
Format settings, CABAC : Yes
Format settings, ReFrames : 1 frame
Format settings, GOP : M=1, N=50
Codec ID : avc1
Codec ID/Info : Advanced Video Coding
Duration : 51mn 31s
Bit rate : 5 507 Kbps
Maximum bit rate : 18.6 Mbps
Width : 1 920 pixels
Height : 1 080 pixels
Display aspect ratio : 16:9
Frame rate mode : Constant
Frame rate : 25.000 fps
Color space : YUV
Chroma subsampling : 4:2:0
Bit depth : 8 bits
Scan type : Progressive
Bits/(Pixel*Frame) : 0.106
Stream size : 1.98 GiB (97%)
Tagged date : UTC 2013-04-08 21:16:34
Audio #2
ID : 2
Format : AAC
Format/Info : Advanced Audio Codec
Format profile : LC
Codec ID : 40
Duration : 51mn 31s
Bit rate mode : Variable
Bit rate : 192 Kbps
Maximum bit rate : 202 Kbps
Channel(s) : 2 channels
Channel positions : Front: L R
Sampling rate : 44.1 KHz
Compression mode : Lossy
Stream size : 70.8 MiB (3%)
Title : IsoMedia File Produced by Google, 5-11-2011
Encoded date : UTC 2013-04-08 21:15:21
Tagged date : UTC 2013-04-08 21:16:34


 
TOP
  
 
Depeche Mode
 Depeche Mode Delta Machine (Album Launch Event) 24.03.2013
11.04.2013, 12:33 
User avatar

Country: Russia (ru)
Парни, ни фига не могу качнуть! Помогите! :unknown:


 
TOP
  
 
Depeche Mode
 Depeche Mode Delta Machine (Album Launch Event) 24.03.2013
11.04.2013, 12:40 
User avatar

Country: Russia (ru)
жми на оранжевый довнлоад нав!
сохраняй на комп,разархивируй и открой торрент файл через прогу utorrent!


 
TOP
  
 
Depeche Mode
 Depeche Mode Delta Machine (Album Launch Event) 24.03.2013
11.04.2013, 12:45 
User avatar

Country: Russia (ru)


Я на нее и жму, потом вот эта хрень качается и песец. :perplexing:


 
TOP
  
 
Depeche Mode
 Depeche Mode Delta Machine (Album Launch Event) 24.03.2013
11.04.2013, 12:51 
User avatar

Country: Russia (ru)
залил на яндекс диск
Пожалуйста, зарегистрируйтесь, чтобы увидеть ссылку. | Please register to see the link.

но вот,что пишет по ссылке: Когда объем публичных файлов, скачанных с вашего Диска, превышает доступный вам объем Диска в два раза, скорость скачивания ваших файлов ограничивается. Ограничение действует в течение суток: все это время опубликованные вами файлы можно скачивать со скоростью не больше 64 Кбит/с. Через сутки счетчик скачанного объема сбрасывается.
Короче,предлагает- Скачать 64 кбит/с
это наверное очень долго... :unknown:


 
TOP
  
 
Depeche Mode
 Depeche Mode Delta Machine (Album Launch Event) 24.03.2013
11.04.2013, 12:54 
User avatar

Country: Russia (ru)
Как раз к выходу официального видео какого нить концерта. :shock: :fp:
Ладно, не парьтесь, значит не надо мне это смотреть.


 
TOP
  
 
Depeche Mode
 Depeche Mode Delta Machine (Album Launch Event) 24.03.2013
11.04.2013, 13:11 
User avatar

Country: Russia (ru)
вообще все ссылки убились,попробую разобраться :perplexing:
заново: Леттерман:
Пожалуйста, зарегистрируйтесь, чтобы увидеть ссылку. | Please register to see the link.

Вена:
Пожалуйста, зарегистрируйтесь, чтобы увидеть ссылку. | Please register to see the link.

скорость должна быть норм-качайте,пока опять не забанили,редиски


 
TOP
  
 
Depeche Mode
 Depeche Mode Delta Machine (Album Launch Event) 24.03.2013
11.04.2013, 13:34 
User avatar

Country: Russia (ru)
ссылки на закачки частенько оперативно удаляются.значит за нами наблюдают правообладатели :smile:


 
TOP
  
 
Depeche Mode
 Depeche Mode Delta Machine (Album Launch Event) 24.03.2013
11.04.2013, 13:36 
User avatar

Country: Russia (ru)
Хм...обычно, я сам наблюдаю... :cool:
а тут уже меня пасут :shock:


 
TOP
  
 
Depeche Mode
 Depeche Mode Delta Machine (Album Launch Event) 24.03.2013
11.04.2013, 13:37 
User avatar

Country: Russia (ru)
Electrotech wrote:
Костян,ваублин! Ты сделал подарок мне !!! :hi:
Круто! :music: :gree:


это испанские друзья...я всего-лишь курьер :smile: :friends:


 
TOP
  
 
Depeche Mode
Reply to topic Go to page Previous  1 ... 6, 7, 8, 9, 10  Next


  

Depeche Mode


Depeche Mode DEPECHE MODE
"Spreading the News around the World"
© 2008-2018 community.depmode.com