Depeche Mode Depeche Mode Depeche Mode Depeche Mode Depeche Mode Depeche Mode * LOGIN   * REGISTER
It is currently 18.12.2017, 19:36

Depeche Mode BBC6 Barrowlands, Glasgow, Scotland 26.03.2017

Reply to topic Go to page Previous  1 ... 8, 9, 10, 11, 12
Author Message
 Depeche Mode BBC6 Barrowlands, Glasgow, Scotland 26.03.2017
08.04.2017, 16:03 
User avatar

Joined: 22.03.2017, 22:52
Posts: 89
Country: Russia (ru)
k.eroyants wrote:
Watch Depeche Mode Live in Glasgow On BBC FOUR Now!
Пожалуйста, зарегистрируйтесь, чтобы увидеть ссылку. | Please register to see the link.


Монтаж короче живой трансляции на 10 мин
([00:59:04] против [01:10:45])



 
TOP
 Profile  
 
Depeche Mode
 Depeche Mode BBC6 Barrowlands, Glasgow, Scotland 26.03.2017
08.04.2017, 20:18 
User avatar

Joined: 08.08.2015, 21:55
Posts: 366
Country: Armenia (am)
wbru wrote:
k.eroyants wrote:
Watch Depeche Mode Live in Glasgow On BBC FOUR Now!
Пожалуйста, зарегистрируйтесь, чтобы увидеть ссылку. | Please register to see the link.


Монтаж короче живой трансляции на 10 мин
([00:59:04] против [01:10:45])


Подскажите, пожалуйста, откуда достать потоковый, оригинальный файл второй трансляции(полагаю в формате .ts).
Спасибо





Maybe it would be the death of us if we suddenly started being recognised.
Mr. Martin L. Gore



Taking from the greedy. Giving to the needy.


 
TOP
 Profile  
 
Depeche Mode
 Depeche Mode BBC6 Barrowlands, Glasgow, Scotland 26.03.2017
09.04.2017, 00:05 
User avatar

Joined: 22.03.2017, 22:52
Posts: 89
Country: Russia (ru)
k.eroyants wrote:
Подскажите, пожалуйста, откуда достать потоковый, оригинальный файл второй трансляции(полагаю в формате .ts).
Спасибо


думаю, можно написать Stevie D (разместившему видео на YT) в комментах с просьбой зашарить оригинал. Возможно, он и пойдет навстречу.


 
TOP
 Profile  
 
Depeche Mode
 Depeche Mode BBC6 Barrowlands, Glasgow, Scotland 26.03.2017
09.04.2017, 15:05 
User avatar

Joined: 22.03.2017, 22:52
Posts: 89
Country: Russia (ru)
нашел ссылку на dime на французском форуме, перезалил сюда:
Credits to: DELTA FORCE 70

Setlist:
01 - Going Backwards
02 - So Much Love
03 - Corrupt - NOT INCLUDED IN TRANSMISSION
04 - A Pain That I'm Used To
05 - World In My Eyes
06 - Cover Me - NOT INCLUDED IN TRANSMISSION
07 - Home
08 - Where's The Revolution
09 - Barrel Of A Gun
10 - Walking In My Shoes
11 - Personal Jesus
12 - Enjoy The Silence

Lineage: BBC 4 HD
Recorded directly to via PCTV 292e tripleStick as .ts file, converted to .mkv file using VideoReDo TV Suite V5

General
Format : Matroska
Format version : Version 4 / Version 2
File size : 1.95 GiB
Duration : 59mn 5s
Overall bit rate : 4 731 Kbps

Video
ID : 1
Format : AVC
Format/Info : Advanced Video Codec
Format profile : High@L4
Format settings, CABAC : Yes
Format settings, ReFrames : 4 frames
Format settings, GOP : M=3, N=24
Codec ID : V_MPEG4/ISO/AVC
Duration : 59mn 5s
Width : 1 920 pixels
Height : 1 080 pixels
Display aspect ratio : 16:9
Frame rate mode : Constant
Frame rate : 25.000 fps
Standard : Component
Color space : YUV
Chroma subsampling : 4:2:0
Bit depth : 8 bits
Scan type : Progressive
Default : No
Forced : No
Color range : Limited
Color primaries : BT.709
Transfer characteristics : BT.709
Matrix coefficients : BT.709

Audio
ID : 2
Format : AAC
Format/Info : Advanced Audio Codec
Format profile : LC
Codec ID : A_AAC
Duration : 59mn 5s
Channel(s) : 2 channels
Channel positions : Front: L R
Sampling rate : 48.0 KHz
Compression mode : Lossy
Language : English
Default : Yes
Forced : No

Text
ID : 3
Format : S_DVBSUB
Codec ID : S_DVBSUB
Language : English
Default : No
Forced : No


 
TOP
 Profile  
 
Depeche Mode
 Depeche Mode BBC6 Barrowlands, Glasgow, Scotland 26.03.2017
09.04.2017, 15:34 
User avatar

Joined: 26.10.2012, 23:46
Posts: 88
Country: Russia (ru)
Благодарствую!


 
TOP
 Profile  
 
Depeche Mode
 Depeche Mode BBC6 Barrowlands, Glasgow, Scotland 26.03.2017
09.04.2017, 20:06 
User avatar

Joined: 08.08.2015, 21:55
Posts: 366
Country: Armenia (am)
wbru wrote:
нашел ссылку на dime на французском форуме, перезалил сюда:

Спасибо :hi:





Maybe it would be the death of us if we suddenly started being recognised.
Mr. Martin L. Gore



Taking from the greedy. Giving to the needy.


 
TOP
 Profile  
 
Depeche Mode
 Depeche Mode BBC6 Barrowlands, Glasgow, Scotland 26.03.2017
29.04.2017, 15:16 
User avatar

Joined: 04.02.2012, 04:52
Posts: 77
Country: Chile (cl)
dual audio version. mkv

audio 1 flac.
Lineage - TS file from zGemma H5 to Asus Laptop MP2 Audio file separated from file using TmpgEnc 5 Tracks split and encoded to Flac 6 using Magix Audio Cleaning Lab.

audio 2 HE-AAC / LC 96.0 kb/s.

(video Meloman67)
(audio sofad1980)



DEPECHE MODE-GLOBAL SPIRIT TOUR\06.-Depeche Mode - BBC Radio 6 Music Festival Barrowland Ballroom, Glasgow, Scotland 2017-03-26 [720p50].mkv
Format : Matroska
Format version : Version 4 / Version 2
File size : 3.03 GiB
Duration : 1 h 12 min
Overall bit rate mode : Variable
Overall bit rate : 5 988 kb/s

Video
ID : 1
Format : AVC
Format/Info : Advanced Video Codec
Format profile : High@L3.2
Format settings, CABAC : Yes
Format settings, ReFrames : 2 frames
Codec ID : V_MPEG4/ISO/AVC
Duration : 1 h 12 min
Bit rate : 5 004 kb/s
Width : 1 280 pixels
Height : 720 pixels
Display aspect ratio : 16:9
Frame rate mode : Constant
Frame rate : 50.000 FPS
Standard : PAL
Color space : YUV
Chroma subsampling : 4:2:0
Bit depth : 8 bits
Scan type : Progressive
Bits/(Pixel*Frame) : 0.109
Stream size : 2.53 GiB (84%)
Default : Yes
Forced : No
Color range : Limited
Color primaries : BT.709
Transfer characteristics : BT.709
Matrix coefficients : BT.709

Audio #1
ID : 2
Format : FLAC
Format/Info : Free Lossless Audio Codec
Codec ID : A_FLAC
Duration : 1 h 12 min
Bit rate mode : Variable
Bit rate : 887 kb/s
Channel(s) : 2 channels
Channel positions : Front: L R
Sampling rate : 44.1 kHz
Frame rate : 10.767 FPS (4096 spf)
Bit depth : 16 bits
Delay relative to video : 800 ms
Stream size : 458 MiB (15%)
Writing library : libFLAC 1.2.1 (UTC 2007-09-17)
Default : No
Forced : No

Audio #2
ID : 3
Format : AAC
Format/Info : Advanced Audio Codec
Format profile : HE-AAC / LC
Codec ID : A_AAC
Duration : 1 h 12 min
Bit rate : 96.0 kb/s
Channel(s) : 2 channels
Channel positions : Front: L R
Sampling rate : 48.0 kHz / 24.0 kHz
Frame rate : 23.438 FPS (1024 spf)
Compression mode : Lossy
Delay relative to video : 42 ms
Stream size : 49.0 MiB (2%)
Default : Yes
Forced : No

Menu
00:00:00.000 : :01 Going Backwards
00:06:56.000 : :02 So Much Love
00:11:56.000 : :03 Corrupt
00:16:58.000 : :04 A Pain That I'm Used To
00:21:32.000 : :05 World In My Eyes
00:27:04.000 : :06 Cover Me
00:32:30.000 : :07 Home
00:39:33.000 : :08 Where's The Revolution
00:44:35.000 : :09 Barrel Of A Gun
00:50:24.000 : :10 Walking In My Shoes
00:57:06.000 : :11 Personal Jesus
01:03:48.000 : :12 Enjoy The Silence


Пожалуйста, зарегистрируйтесь, чтобы увидеть ссылку. | Please register to see the link.


Пожалуйста, зарегистрируйтесь, чтобы увидеть ссылку. | Please register to see the link.



Пожалуйста, зарегистрируйтесь, чтобы увидеть ссылку. | Please register to see the link.


Пожалуйста, зарегистрируйтесь, чтобы увидеть ссылку. | Please register to see the link.


 
TOP
 Profile  
 
Depeche Mode
Reply to topic Go to page Previous  1 ... 8, 9, 10, 11, 12


  

Depeche Mode


Depeche Mode DEPECHE MODE
"Spreading the News around the World"
© 2008-2017 community.depmode.com